Titanic 1997 1080p BluRay H264 AAC-RARBG


    Seeders : 11      Leechers : 2

Hash :676D2EB8A2265E876D57E646137DDDC998517CCE
Added :1 Year+ in Other - Other
Size :3.72 GB
Stream :Watch Full Movie Online @ Movie4u
Share :


Titanic 1997 1080p BluRay H264 AAC-RARBG
Download Direct And Anonymously







Warning! Do not Download Torrents Without a VPN!
Your IP Address is 185.162.9.168.   And Location is Netherlands, Naaldwijk
Your Internet Provider and Government can track your torrent Activity!  Hide your IP ADDRESS with a VPN!
We Strongly Recommend Using Best Cheapest VPN to Anonymize your Torrenting.

Note :

Please Update (Trackers Info) Before Start Torrents Downloading to See Updated Seeders And Leechers for Batter Download Speed.

Trackers List

Tracker NameLast CheckStatusSeedersLeechers
udp://9.rarbg.to:2710/announce1 Year+success112
udp://9.rarbg.me:2710/announce1 Year+success112
udp://9.rarbg.com:2710/announce1 Year+success112
http://tracker.trackerfix.com/announce1 Year+success82
udp://tracker.ilibr.org:6969/announce1 Year+success20
udp://tracker.coppersurfer.tk:801 Year+success20
http://bigfoot1942.sektori.org:6969/announce1 Year+success00
http://tracker.nwps.ws:6969/announce1 Year+success00
udp://ipv4.tracker.harry.lu:80/announce1 Year+success00




Torrent File Content (5 files)


Titanic.1997.1080p.BluRay.H264.AAC-RARBG
     RARBG.COM.mp4 -
992.93 KB

     RARBG.COM.txt -
34 bytes

    Subs
          Und.srt -
134.63 KB

     Titanic.1997.1080p.BluRay.H264.AAC-RARBG.mp4 -
3.72 GB

     Titanic.1997.1080p.BluRay.H264.AAC-RARBG.nfo -
11.27 KB



Description



 							
http://rarbg.to
Titanic.1997.1080p.BluRay.H264.AAC-RARBG

image
Screens :

image

image

image

image

image
Mediainfo :

Video
ID : 1
Format : AVC
Format/Info : Advanced Video Codec
Format profile : [email protected]
Format settings, CABAC : Yes
Format settings, ReFrames : 4 frames
Codec ID : avc1
Codec ID/Info : Advanced Video Coding
Duration : 3h 14mn
Bit rate : 2 500 Kbps
Width : 1 920 pixels
Height : 816 pixels
Display aspect ratio : 2.35:1
Frame rate mode : Constant
Frame rate : 23.976 fps
Color space : YUV
Chroma subsampling : 4:2:0
Bit depth : 8 bits
Scan type : Progressive
Bits/(Pixel*Frame) : 0.067
Stream size : 3.40 GiB (92%)
Writing library : x264 core 144 r2525M 40bb568
Encoding settings : cabac=1 / ref=4 / deblock=1:-1:-1 / analyse=0x3:0x113 / me=umh / subme=9 / psy=1 / psy_rd=1.00:0.15 / mixed_ref=1 / me_range=24 / chroma_me=1 / trellis=2 / 8x8dct=1 / cqm=0 / deadzone=21,11 / fast_pskip=1 / chroma_qp_offset=-3 / threads=32 / lookahead_threads=4 / sliced_threads=0 / nr=0 / decimate=1 / interlaced=0 / bluray_compat=0 / constrained_intra=0 / bframes=3 / b_pyramid=2 / b_adapt=1 / b_bias=0 / direct=1 / weightb=1 / open_gop=0 / weightp=2 / keyint=250 / keyint_min=25 / scenecut=40 / intra_refresh=0 / rc_lookahead=50 / rc=2pass / mbtree=1 / bitrate=2500 / ratetol=1.0 / qcomp=0.60 / qpmin=0 / qpmax=69 / qpstep=4 / cplxblur=20.0 / qblur=0.5 / vbv_maxrate=31250 / vbv_bufsize=31250 / nal_hrd=none / filler=0 / ip_ratio=1.40 / aq=3:1.00
Encoded date : UTC 1904-01-01 00:00:00
Tagged date : UTC 1904-01-01 00:00:00

Audio
ID : 2
Format : AAC
Format/Info : Advanced Audio Codec
Format profile : LC
Codec ID : 40
Duration : 3h 14mn
Bit rate mode : Constant
Bit rate : 224 Kbps
Channel(s) : 2 channels
Channel(s)_Original : 6 channels
Channel positions : Front: L C R, Side: L R, LFE
Sampling rate : 48.0 KHz
Compression mode : Lossy
Stream size : 312 MiB (8%)
Encoded date : UTC 1904-01-01 00:00:00
Tagged date : UTC 1904-01-01 00:00:00

Menu #1
ID : 3
Codec ID : text
Duration : 3h 14mn
Language : English
Encoded date : UTC 1904-01-01 00:00:00
Tagged date : UTC 1904-01-01 00:00:00
Bit rate mode : CBR
00:00:00.000 : 00:00:00.000
00:01:24.419 : 00:01:24.376
00:04:40.031 : 00:04:39.988
00:08:26.174 : 00:08:26.131
00:10:46.814 : 00:10:46.771
00:12:52.690 : 00:12:52.647
00:16:52.471 : 00:16:52.428
00:20:07.791 : 00:20:07.748
00:23:38.919 : 00:23:38.876
00:26:26.586 : 00:26:26.543
00:29:03.409 : 00:29:03.366
00:29:37.569 : 00:29:37.526
00:34:59.974 : 00:34:59.931
00:36:48.666 : 00:36:48.623
00:42:59.203 : 00:42:59.160
00:45:26.141 : 00:45:26.098
00:47:11.663 : 00:47:11.620
00:53:33.086 : 00:53:33.043
00:56:48.031 : 00:56:47.988
01:05:32.096 : 01:05:32.053
01:10:20.008 : 01:10:19.965
01:14:06.401 : 01:14:06.358
01:16:10.734 : 01:16:10.691
01:19:59.087 : 01:19:59.044
01:22:50.550 : 01:22:50.507
01:23:40.099 : 01:23:40.056
01:28:21.672 : 01:28:21.629
01:29:19.897 : 01:29:19.854
01:32:52.318 : 01:32:52.275
01:36:59.147 : 01:36:59.104
01:44:41.192 : 01:44:41.149
01:46:21.084 : 01:46:21.041
01:47:58.890 : 01:47:58.847
01:50:11.147 : 01:50:11.104
01:52:21.444 : 01:52:21.401
01:53:54.370 : 01:53:54.327
01:55:21.874 : 01:55:21.831
01:56:10.923 : 01:56:10.880
01:57:53.275 : 01:57:53.232
02:06:38.383 : 02:06:38.340
02:08:50.015 : 02:08:49.972
02:11:22.125 : 02:11:22.082
02:15:42.593 : 02:15:42.550
02:19:43.501 : 02:19:43.458
02:21:24.602 : 02:21:24.559
02:25:28.804 : 02:25:28.761
02:27:28.465 : 02:27:28.422
02:29:07.314 : 02:29:07.271
02:29:56.738 : 02:29:56.695
02:33:31.578 : 02:33:31.535
02:36:52.403 : 02:36:52.360
02:38:33.921 : 02:38:33.878
02:40:34.709 : 02:40:34.666
02:45:00.683 : 02:45:00.640
02:47:48.851 : 02:47:48.808
02:49:22.569 : 02:49:22.526
02:52:09.653 : 02:52:09.610
02:53:41.370 : 02:53:41.327
02:57:53.538 : 02:57:53.495
02:59:35.348 : 02:59:35.305
03:01:29.295 : 03:01:29.252
03:03:13.691 : 03:03:13.648
03:04:57.920 : 03:04:57.877
03:07:19.687 : 03:07:19.644

Menu #2
00:00:00.043 : 00:00:00.000
00:01:24.419 : 00:01:24.376
00:04:40.031 : 00:04:39.988
00:08:26.174 : 00:08:26.131
00:10:46.814 : 00:10:46.771
00:12:52.690 : 00:12:52.647
00:16:52.471 : 00:16:52.428
00:20:07.791 : 00:20:07.748
00:23:38.919 : 00:23:38.876
00:26:26.586 : 00:26:26.543
00:29:03.409 : 00:29:03.366
00:29:37.569 : 00:29:37.526
00:34:59.974 : 00:34:59.931
00:36:48.666 : 00:36:48.623
00:42:59.203 : 00:42:59.160
00:45:26.141 : 00:45:26.098
00:47:11.663 : 00:47:11.620
00:53:33.086 : 00:53:33.043
00:56:48.031 : 00:56:47.988
01:05:32.096 : 01:05:32.053
01:10:20.008 : 01:10:19.965
01:14:06.401 : 01:14:06.358
01:16:10.734 : 01:16:10.691
01:19:59.087 : 01:19:59.044
01:22:50.550 : 01:22:50.507
01:23:40.099 : 01:23:40.056
01:28:21.672 : 01:28:21.629
01:29:19.897 : 01:29:19.854
01:32:52.318 : 01:32:52.275
01:36:59.147 : 01:36:59.104
01:44:41.192 : 01:44:41.149
01:46:21.084 : 01:46:21.041
01:47:58.890 : 01:47:58.847
01:50:11.147 : 01:50:11.104
01:52:21.444 : 01:52:21.401
01:53:54.370 : 01:53:54.327
01:55:21.874 : 01:55:21.831
01:56:10.923 : 01:56:10.880
01:57:53.275 : 01:57:53.232
02:06:38.383 : 02:06:38.340
02:08:50.015 : 02:08:49.972
02:11:22.125 : 02:11:22.082
02:15:42.593 : 02:15:42.550
02:19:43.501 : 02:19:43.458
02:21:24.602 : 02:21:24.559
02:25:28.804 : 02:25:28.761
02:27:28.465 : 02:27:28.422
02:29:07.314 : 02:29:07.271
02:29:56.738 : 02:29:56.695
02:33:31.578 : 02:33:31.535
02:36:52.403 : 02:36:52.360
02:38:33.921 : 02:38:33.878
02:40:34.709 : 02:40:34.666
02:45:00.683 : 02:45:00.640
02:47:48.851 : 02:47:48.808
02:49:22.569 : 02:49:22.526
02:52:09.653 : 02:52:09.610
02:53:41.370 : 02:53:41.327
02:57:53.538 : 02:57:53.495
02:59:35.348 : 02:59:35.305
03:01:29.295 : 03:01:29.252
03:03:13.691 : 03:03:13.648
03:04:57.920 : 03:04:57.877
03:07:19.687 : 03:07:19.644




Related torrents

Torrent NameAddedSizeSeedLeechHealth
1 Year+ - in Other4.31 GB00
1 Year+ - in Other2.36 GB24
1 Year+ - in Movies2.86 GB10
10 months ago - in Other2.63 GB00
11 months ago - in Movies1.66 GB00

Note :

Feel free to post any comments about this torrent, including links to Subtitle, samples, screenshots, or any other relevant information. Please Dont Download anything from Comments, And Links to Streaming Sites like Watch Online Titanic 1997 1080p BluRay H264 AAC-RARBG Full Movie, Fmovies, 123Movies, Putlocker, Netflix, etc.

Comments (0 Comments)




Please login or create a FREE account to post comments

Latest Searches

SitemapDesign by Skidrowcpy.com | Running Man Episode 70 | Clé Plip Télécommande Complète Peugeot 1007 et 807 * 4 boutons Fréquence: 433mhz